Jump to content
Cesbo Community
  • Announcements

    • RadioSintetica

      Information   10/21/18

      Registration on the forum temporarily closed! For support requests, please contacat us: https://cesbo.com/help
      Our community in Telegram: @cesbo_en (English language) , @cesbo_ru (Russian language) , @cesbo_es (Spanish Language)

All Activity

This stream auto-updates     

  1. Today
  2. ASTRA IPTV КАРДШАРИНГ

    туалетный коврик восстал,
  3. ASTRA IPTV КАРДШАРИНГ

    Шпротттт базар фильтруй, а то утонешь на подлодке.
  4. ASTRA IPTV КАРДШАРИНГ

    а шо ты протих хохлов имеешь? ты сам-то давно с бутылки слез, колхозник?
  5. ASTRA IPTV КАРДШАРИНГ

    На халяву уксус сладкий, за 16$ с шары захотел 16 трансподеров в IPTV транслировать, ды ты прямо какел жыдовский, всех на свете наэбать собрался :) Во ужо возьмут под белы рученьки за трансляцию ворованного контента и впаяют штраф тыс. на 50, чтоб неповадно было.
  6. Yesterday
  7. ASTRA IPTV КАРДШАРИНГ

    а что на выходе из астры ? И что значит зависания ?
  8. ASTRA IPTV КАРДШАРИНГ

    Всем привет! Такого плана вопрос. Есть некий сервис кардшаринга с НТВ+ пакетом. Настроил тарелку, добавил транспондеры в астру... Все работает, но подвисает картинка... подумал, решил что вопрос в задержке получения ключей... Ок, купил еще одну учетку шаринга, добавил, проблема частично решилась... В итоге я купил 16 учеток по одной на транспондер, но некоторые каналы показывают нормально без торможения, другие с торможением... от кол-ва каналов не зависит. Как разрулить данную ситуацию? Учетные записи разные, обращения к серверам тоже разные... Причем если учетная запись на 2 тюнера - проблема не решается, две учетные записи шаринга - зависания уменьшаются...
  9. Last week
  10. buffer overflow [UDP Output]

    не помогает .....
  11. SKYDE NDS 64 Bit

    Now skyde move to 64 bit and also all new nds now is 64 bit so any chance for astra to support nds 64 bit ?? (last build tested and not work)
  12. Sky De Original

    У кого то есть Sky De Оригинал спс ищу каналы
  13. Зависает сервер астра

    всё понятно. спасибо за помощь.
  14. Earlier
  15. Зависает сервер астра

    прерывание на одно PCI-E устройство, а уж сколько там тюнеров или это вовсе не тюнер :)
  16. Зависает сервер астра

    перегрузили сервер, карточки разложились. а тюнеры(по 4шт. на карте ) не раскладываются??
  17. Fashion TV в 16:9, а не в 4:3

    Добрый вечер! столкнулся с такой же проблемой поток напрямую с DVB карты играется норм везде (vlc, stb, LG) на телевизорах Samsung TIZEN "ужат" ffmpeg говорит Duration: 00:00:00.03, start: 52420.778000, bitrate: 45 kb/s Program 0 Metadata: variant_bitrate : 1447450 Stream #0:0: Data: timed_id3 (ID3 / 0x20334449) Metadata: variant_bitrate : 1447450 Stream #0:1: Video: h264 (High) ([27][0][0][0] / 0x001B), yuv420p(tv, bt470bg), 720x576 [SAR 16:11 DAR 20:11], 50 fps, 50 tbr, 90k tbn, 50 tbc Metadata: variant_bitrate : 1447450 Stream #0:2: Audio: aac ([15][0][0][0] / 0x000F), 48000 Hz, stereo, fltp, 96 kb/s Metadata: variant_bitrate : 1447450 канал Кинохит с 36 пробовал и по http и HLS все равно ужат. Помогает только транскодирование а это ухудшает качество и ест ресурсы. Канал и так в h264 бери да показывай ан нет... Может кто знает как поменять потоку Aspect Ratio без тарнскодирования ? или как-то по другому такую проблему решал ?
  18. Зависает сервер астра

    В общем результат такой: запустили каждый транспондер(процесс astra) на своём ядре, результат порадовал. разложить DVB по ядрам пока не удалось, сервер ещё не перегружали.
  19. AvProxy

    Нужен именно hls, потому что отдавать каналы нужно в беспроводную сеть, а там unicast не совсем себя хорошо ведет.
  20. AvProxy

    А зачем такие дикие костыли, если на астре есть подобный функционал (правда не hls, а http)?
  21. Need help With Nvidia Transcoding

    Hi Are talking about SD or HD channels?
  22. AvProxy

    Большое спасибо автору за работу, но по поводу необходимого hls on demand, сколько будет стоить доработка avproxy с этой функцией ? У меня вот такие бредовые мысли возникли как самому сделать такой функционал. Запускаем 1 копию avproxy на каждый канал (бред наверное но тем не менее). Дальше пишем демон, который следит есть ли активность по каждому каналу, если активности нету то делает kill определенного процесса. И так же всегда слушает входящие запросы на канал, если пришел запрос то запускает ту копию avproxy. Костыли конечно, но очень нужно. Имеем 100 каналов но 30-40 зрителей, и тянуть из всемирной паутины 200-300mbps для всех каналов очень не правильно. Автор, ждем от Вас ответ.
  23. Изменение порядка аудио потоков: возможно ли это в астре?
  24. Зависает сервер астра

    в конфигах /etc/modprobe.d/*.conf пропиши опцию options saa716x_tbs-dvb int_type=1
  25. Зависает сервер астра

    modinfo saa716x_tbs_dvb
  26. Зависает сервер астра

    я точно ни чего ни где не выключал ...... ткните носом где что подкрутить надо? P.S. заметил, что идет утечка памяти. после ребута компа и поднятия астры используется 900 мегабайт через 12 часов уже 1500, если простоял больше суток - 1700.
  27. А где темка делась ?

    Что-то форум мертвый
  28. Зависает сервер астра

    так а зачем msi вырубил для saa716x_dvb ?
  1. Load more activity
×